国配影迷社区

 会员注册
 找回密码

QQ登录

用QQ快速登录该站

搜索
热搜: 悬疑
123下一页
返回列表 发新帖
查看: 27|回复: 24

[国英双语] 【登山系列第一部】【绝命海拔】【Everest.2015.高清BluRay.1080p.x264】【双语音轨】【上译英双语特效字幕】【2.06G】【完美版】

 

特级元老

Rank: 16Rank: 16Rank: 16Rank: 16

阅读权限:
150

34

帖子

430

积分

232

威望
  资源量: 14
Mini重量: 20
在线时间
1266 小时
注册时间
2019-2-14
cmkow 发表于 2019-3-1 11:08
本帖最后由 cscmk 于 2019-6-26 16:01 编辑

【本资源仅用于坛友交流,请勿用于商业目的】
jmhb.jpg
◎译  名 绝命海拔/圣母峰(台)/珠峰浩劫(港)/珠穆朗玛/远征珠峰/珠穆朗玛峰                        
◎片  名 Everest                                                      
◎年  代 2015                                                                                                                              
◎国  家 英国/美国/冰岛                                                                                                                                          
◎类  别 剧情/传记/冒险
◎拍摄语言英语
◎上映日期 2015-11-03(中国大陆)/2015-09-02(威尼斯电影节)/2015-09-25(美国)
◎IMDb评分  7.2/10 from 67,483 users
◎IMDb链接  http://www.imdb.com/title/tt2719848/
◎豆瓣评分 7.5/10 from 24,905 users
◎豆瓣链接 http://movie.douban.com/subject/22265299/
◎片  长 120分钟
◎导  演 巴塔萨·科马库 Baltasar Kormákur
◎主  演 杰森·克拉科 Jason Clarke
      乔什·布洛林 Josh Brolin
      约翰·浩克斯 John Hawkes
      罗宾·怀特 Robin Wright
      艾米丽·沃森 Emily Watson
      迈克尔·凯利 Michael Kelly
      凯拉·奈特莉 Keira Knightley
      萨姆·沃辛顿 Sam Worthington
      杰克·吉伦哈尔 Jake Gyllenhaal
      克莱夫·斯坦登 Clive Standen
      伊丽莎白·德比茨基 Elizabeth Debicki
      米娅·高斯 Mia Goth
      马丁·亨德森 Martin Henderson
      凡妮莎·柯比 Vanessa Kirby
      汤姆·古德曼-希尔 Tom Goodman-Hill
      森尚子 Naoko Mori
◎简  介
  友善谨慎的新西兰领队罗布·霍尔(杰森·克拉科 Jason Clarke 饰),他的队伍名为“冒险顾问”;而斯科特·费雪(杰克·吉伦哈尔 Jake Gyllenhaal 饰)则风趣搞怪,他带领来自西雅图的“疯狂山脉”登山队。他们相互竞争,又彼此帮助。
  两支队伍中的勇士们来自各行各业,他们中有邮差、记者、医生,还有一名来自日本的职业女性。这些登山者看似平凡, 但每个人背后都有一个属于自己的梦想,激励着他们前往海拔8000米以上、氧气稀薄的珠峰。在攀登过程中,他们的身体机能急速下降,在应对体力衰竭、缺氧、雪盲的同时,他们又极为不幸地遭遇了一场剧烈的暴风雪,因此命悬一线。
  影片改编自1996年的一次真实探险经历。
◎获奖情况
  第22届美国演员工会奖 (2016)
  电影最佳特技群像(提名)
特效字幕效果图

1.png       2.png       3.png       4.png    

5.png       6-1.png       6-2.jpg       6-3.jpg

7-1.png       7-2.png       7-3.png       7-4.png   

7-5.png       8-1.png       8-2.png       8-3.png

8-4.png       8-5.png       8-6.jpg       9-1.jpg

9-2.jpg       9-3.jpg       10-1.jpg       10-2.jpg   

10-4.jpg       10-5.jpg    

个人喜好,网上的版本都不合心意,因此花了数天时间,压制视频和制作了上译配音+英文的双语字幕,
字幕特效部分参考了无聊老生的ass字幕,在此表示感谢!!!
考虑到机器原因,音频用了ac3而非DTS,压制了x265和x264双版本视频,方便机器配置低的电脑和电
视机播放,特效字幕需要全屏播放才能完美显示,个人感觉是比较完美的版本了。
【登山系列第二部】链接:  club.coovm.com/58208-1.htm


测试链接: https://pan.baidu.com/s/1Kqx5r8viWDuvY-bnvXsLJg
备用链接: pan.baidu.com/#ID-57953
提取码:
亲爱的游客:查看本帖以下隐藏内容需先回复:点此快速回复     自动显隐藏 














主题曾于 2019-2-28 21:44  保存草稿








查看本帖 所有图文内容 与 下载 和 附件:

您需要先 登录     还没有帐号? 点此  注册会员    或者:

X

本贴会员评分记录:

评分人数: 2金币 +70 收起 原因
紫蝶花语 + 50 很赞,超给力的资源!
孤月冷蝶 + 20 很赞,超给力的资源!

查看所有评分↑

楼主其它主题  [国英双语] 【4K小体积精品之一】血战钢锯岭.Hacksaw.Ridge.2016.UHD.BluRay.2160p.x265-10bit.TrueHD7.1.2Audios-cmkow.mkv 15.3G
[国英双语] 【4K小体积精品之二】4K.金刚.King.Kong.2005.UHD.BluRay.2160p.HEVC.DTS-HD.MA.7.1-cmkow.mkv 19.2G-百度云

特级元老

Rank: 16Rank: 16Rank: 16Rank: 16

阅读权限:
150

34

帖子

430

积分

232

威望
  资源量: 14
Mini重量: 20
在线时间
1266 小时
注册时间
2019-2-14
 楼主| cmkow 发表于 2019-3-1 11:09
x265文件信息

General
Unique ID                      : 232059579202522655816657226978159036774 (0xAE950C9B7044882A9E2A31949E190966)
Complete name                  : F:\finish_film_send\Everes\绝命救援.Everest.2015.1080p.BluRay.1080p.x265.10bit.Hevc.2Audio.DD5.1.ac3-cmkow.mkv
Format                         : Matroska
Format version                 : Version 4 / Version 2
File size                      : 2.08 GiB
Duration                       : 2 h 1 min
Overall bit rate               : 2 453 kb/s
Movie name                     : By_cmkow
Encoded date                   : UTC 2019-02-28 11:35:15
Writing application            : mkvmerge v9.6.0 ('Slave To Your Mind') 32bit
Writing library                : libebml v1.3.4 + libmatroska v1.4.5

Video
ID                             : 1
Format                         : HEVC
Format/Info                    : High Efficiency Video Coding
Format profile                 : Main 10@L4@Main
Codec ID                       : V_MPEGH/ISO/HEVC
Duration                       : 2 h 1 min
Bit rate                       : 1 899 kb/s
Width                          : 1 920 pixels
Height                         : 808 pixels
Display aspect ratio           : 2.40:1
Frame rate mode                : Constant
Frame rate                     : 23.976 (24000/1001) FPS
Color space                    : YUV
Chroma subsampling             : 4:2:0
Bit depth                      : 10 bits
Bits/(Pixel*Frame)             : 0.051
Stream size                    : 1.61 GiB (77%)
Title                          : Hevc.x265
Writing library                : x265 2.8:[Windows][GCC 5.1.0][64 bit] 10bit
Encoding settings              : cpuid=1111039 / frame-threads=3 / wpp / no-pmode / no-pme / no-psnr / no-ssim / log-level=2 / input-csp=1 / input-res=1920x808 / interlace=0 / total-frames=0 / level-idc=0 / high-tier=1 / uhd-bd=0 / ref=2 / no-allow-non-conformance / no-repeat-headers / annexb / no-aud / no-hrd / info / hash=0 / no-temporal-layers / open-gop / min-keyint=23 / keyint=250 / gop-lookahead=0 / bframes=4 / b-adapt=0 / b-pyramid / bframe-bias=0 / rc-lookahead=15 / lookahead-slices=5 / scenecut=40 / radl=0 / no-intra-refresh / ctu=64 / min-cu-size=8 / no-rect / no-amp / max-tu-size=32 / tu-inter-depth=1 / tu-intra-depth=1 / limit-tu=0 / rdoq-level=0 / dynamic-rd=0.00 / no-ssim-rd / signhide / no-tskip / nr-intra=0 / nr-inter=0 / no-constrained-intra / strong-intra-smoothing / max-merge=2 / limit-refs=3 / no-limit-modes / me=1 / subme=1 / merange=57 / temporal-mvp / weightp / no-weightb / no-analyze-src-pics / deblock=0:0 / sao / no-sao-non-deblock / rd=2 / early-skip / rskip / fast-intra / no-tskip-fast / no-cu-lossless / no-b-intra / no-splitrd-skip / rdpenalty=0 / psy-rd=0.00 / psy-rdoq=0.00 / no-rd-refine / no-lossless / cbqpoffs=0 / crqpoffs=0 / rc=abr / bitrate=2000 / qcomp=0.60 / qpstep=4 / stats-write=0 / stats-read=0 / ipratio=1.40 / pbratio=1.30 / aq-mode=2 / aq-strength=1.00 / cutree / zone-count=0 / no-strict-cbr / qg-size=32 / no-rc-grain / qpmax=69 / qpmin=0 / no-const-vbv / sar=1 / overscan=0 / videoformat=5 / range=0 / colorprim=2 / transfer=2 / colormatrix=2 / chromaloc=0 / display-window=0 / max-cll=0,0 / min-luma=0 / max-luma=1023 / log2-max-poc-lsb=8 / vui-timing-info / vui-hrd-info / slices=1 / no-opt-qp-pps / no-opt-ref-list-length-pps / no-multi-pass-opt-rps / scenecut-bias=0.05 / no-opt-cu-delta-qp / no-aq-motion / no-hdr / no-hdr-opt / no-dhdr10-opt / no-idr-recovery-sei / analysis-reuse-level=5 / scale-factor=0 / refine-intra=0 / refine-inter=0 / refine-mv=0 / no-limit-sao / ctu-info=0 / no-lowpass-dct / refine-mv-type=0 / copy-pic=1 / max-ausize-factor=1.0 / no-dynamic-refine / no-single-sei
Language                       : Chinese
Default                        : Yes
Forced                         : No

Audio #1
ID                             : 2
Format                         : AC-3
Format/Info                    : Audio Coding 3
Mode extension                 : CM (complete main)
Format settings, Endianness    : Big
Codec ID                       : A_AC3
Duration                       : 2 h 1 min
Bit rate mode                  : Constant
Bit rate                       : 256 kb/s
Channel(s)                     : 6 channels
Channel positions              : Front: L C R, Side: L R, LFE
Sampling rate                  : 48.0 kHz
Frame rate                     : 31.250 FPS (1536 spf)
Bit depth                      : 16 bits
Compression mode               : Lossy
Stream size                    : 222 MiB (10%)
Title                          : 上译国配
Language                       : Chinese
Default                        : Yes
Forced                         : Yes

Audio #2
ID                             : 3
Format                         : AC-3
Format/Info                    : Audio Coding 3
Mode extension                 : CM (complete main)
Format settings, Endianness    : Big
Codec ID                       : A_AC3
Duration                       : 2 h 1 min
Bit rate mode                  : Constant
Bit rate                       : 256 kb/s
Channel(s)                     : 6 channels
Channel positions              : Front: L C R, Side: L R, LFE
Sampling rate                  : 48.0 kHz
Frame rate                     : 31.250 FPS (1536 spf)
Bit depth                      : 16 bits
Compression mode               : Lossy
Stream size                    : 222 MiB (10%)
Title                          : 原音音轨
Language                       : English
Default                        : No
Forced                         : No

Text
ID                             : 4
Format                         : PGS
Muxing mode                    : zlib
Codec ID                       : S_HDMV/PGS
Codec ID/Info                  : Picture based subtitle format used on BDs/HD-DVDs
Duration                       : 1 h 56 min
Bit rate                       : 41.8 kb/s
Count of elements              : 4888
Stream size                    : 34.7 MiB (2%)
Title                          : 中(上译)英双语字幕
Language                       : Chinese
Default                        : Yes
Forced                         : Yes

回复

特级元老

Rank: 16Rank: 16Rank: 16Rank: 16

阅读权限:
150

34

帖子

430

积分

232

威望
  资源量: 14
Mini重量: 20
在线时间
1266 小时
注册时间
2019-2-14
 楼主| cmkow 发表于 2019-3-1 11:10
x264文件信息:
General
Unique ID                      : 237951083575601350077046081534145586798 (0xB303B633011A9B859FF9F90DCA47E66E)
Complete name                  : F:\finish_film_send\Everes\绝命救援.Everest.2015.1080p.BluRay.1080p.x264.10bit.2Audio.DD5.1.ac3-cmkow.mkv
Format                         : Matroska
Format version                 : Version 4 / Version 2
File size                      : 2.06 GiB
Duration                       : 2 h 1 min
Overall bit rate               : 2 436 kb/s
Movie name                     : By_cmkow
Encoded date                   : UTC 2019-02-28 11:37:12
Writing application            : mkvmerge v9.6.0 ('Slave To Your Mind') 32bit
Writing library                : libebml v1.3.4 + libmatroska v1.4.5

Video
ID                             : 1
Format                         : AVC
Format/Info                    : Advanced Video Codec
Format profile                 : High 10@L5.1
Format settings, CABAC         : Yes
Format settings, ReFrames      : 4 frames
Codec ID                       : V_MPEG4/ISO/AVC
Duration                       : 2 h 1 min
Bit rate                       : 1 882 kb/s
Nominal bit rate               : 2 000 kb/s
Width                          : 1 920 pixels
Height                         : 808 pixels
Display aspect ratio           : 2.40:1
Frame rate mode                : Constant
Frame rate                     : 23.976 (24000/1001) FPS
Color space                    : YUV
Chroma subsampling             : 4:2:0
Bit depth                      : 10 bits
Scan type                      : Progressive
Bits/(Pixel*Frame)             : 0.051
Stream size                    : 1.59 GiB (77%)
Writing library                : x264 core 155 r2901 7d0ff22
Encoding settings              : cabac=1 / ref=2 / deblock=1:-1:-1 / analyse=0x3:0x113 / me=hex / subme=6 / psy=1 / psy_rd=1.00:0.15 / mixed_ref=1 / me_range=16 / chroma_me=1 / trellis=1 / 8x8dct=1 / cqm=0 / deadzone=21,11 / fast_pskip=1 / chroma_qp_offset=-3 / threads=12 / lookahead_threads=2 / sliced_threads=0 / nr=0 / decimate=1 / interlaced=0 / bluray_compat=0 / constrained_intra=0 / bframes=3 / b_pyramid=2 / b_adapt=1 / b_bias=0 / direct=1 / weightb=1 / open_gop=0 / weightp=1 / keyint=250 / keyint_min=23 / scenecut=40 / intra_refresh=0 / rc_lookahead=30 / rc=abr / mbtree=1 / bitrate=2000 / ratetol=1.0 / qcomp=0.60 / qpmin=0 / qpmax=81 / qpstep=4 / ip_ratio=1.40 / aq=1:1.00
Language                       : Chinese
Default                        : Yes
Forced                         : Yes

Audio #1
ID                             : 2
Format                         : AC-3
Format/Info                    : Audio Coding 3
Mode extension                 : CM (complete main)
Format settings, Endianness    : Big
Codec ID                       : A_AC3
Duration                       : 2 h 1 min
Bit rate mode                  : Constant
Bit rate                       : 256 kb/s
Channel(s)                     : 6 channels
Channel positions              : Front: L C R, Side: L R, LFE
Sampling rate                  : 48.0 kHz
Frame rate                     : 31.250 FPS (1536 spf)
Bit depth                      : 16 bits
Compression mode               : Lossy
Stream size                    : 222 MiB (11%)
Title                          : 上译国配
Language                       : Chinese
Default                        : Yes
Forced                         : Yes

Audio #2
ID                             : 3
Format                         : AC-3
Format/Info                    : Audio Coding 3
Mode extension                 : CM (complete main)
Format settings, Endianness    : Big
Codec ID                       : A_AC3
Duration                       : 2 h 1 min
Bit rate mode                  : Constant
Bit rate                       : 256 kb/s
Channel(s)                     : 6 channels
Channel positions              : Front: L C R, Side: L R, LFE
Sampling rate                  : 48.0 kHz
Frame rate                     : 31.250 FPS (1536 spf)
Bit depth                      : 16 bits
Compression mode               : Lossy
Stream size                    : 222 MiB (11%)
Title                          : 原音音轨
Language                       : English
Default                        : No
Forced                         : No

Text
ID                             : 4
Format                         : PGS
Muxing mode                    : zlib
Codec ID                       : S_HDMV/PGS
Codec ID/Info                  : Picture based subtitle format used on BDs/HD-DVDs
Duration                       : 1 h 56 min
Bit rate                       : 41.8 kb/s
Count of elements              : 4888
Stream size                    : 34.7 MiB (2%)
Title                          : 中(上译)英双语字幕
Language                       : Chinese
Default                        : Yes
Forced                         : Yes

回复

金牌会员 Rank: 8Rank: 8
阅读权限:
100

6

帖子

570

积分

288

威望
资源量:8  Mini重:0

 在线:812时 注册:19-2-8
yaojingzhe 发表于 2019-3-1 11:10
非常好看,谢谢分享了
回复

金牌会员 Rank: 8Rank: 8
阅读权限:
100

15

帖子

525

积分

270

威望
资源量:1  Mini重:20

 在线:1394时 注册:19-1-30
caiqincheng 发表于 2019-3-1 11:11
谢谢楼主分享
回复

金牌会员 Rank: 8Rank: 8
阅读权限:
100

78

帖子

210

积分

144

威望
资源量:1  Mini重:20

 在线:276时 注册:19-1-27
londa2005 发表于 2019-3-1 11:13
我喜欢这类型的电影  谢谢分享
回复

金牌会员 Rank: 8Rank: 8
阅读权限:
100

70

帖子

250

积分

160

威望
资源量:0  Mini重:20

 在线:1599时 注册:17-9-18
shuqin1020 发表于 2019-3-1 11:32
OK哦扣扣扣扣看
回复

特级元老

Rank: 16Rank: 16Rank: 16Rank: 16

阅读权限:
150

84

帖子

180

积分

132

威望
  资源量: 0
Mini重量: 20
在线时间
1836 小时
注册时间
2018-1-11
jeene 发表于 2019-3-1 12:04
不错嘛
回复

123下一页
返回列表 发新帖
您需要登录后才可以回帖 登录 | 会员注册

查看系统  本版 积分策略  

程序代码报错留言|程序状态对接接口api - cnzz程序历史log|最近热门词搜索记录Log|站点统计|违规名单|手机版|Cnzz数据统计日志 - 在线接入api @cnzz|国配影迷社区coovm



Copyright 2000-2021 © Comsenz™ DZ V3.5®
GMT+8:2021-8-1 15:52:21   Processed 5 Query in 0.0123 second. CDN Cache On .
社区内资源由译制配音网友爱好收集,严禁任何博眼球的不良或擦边类
发新主题应验证手机后, 交流从和谐大度、从容友爱,不可交流任何不适容。
同时不要发一切上映国产与引进片(也含要上映的引进片与一切tc尝鲜等,保护上映与国产) 反馈@
快速回复 返回顶部 返回列表